BorderCross | Joshua Pearce | Nicholas GuestChapter 387 : Battle Of Mourning | Extinct 2017 7.3 | Death Wish 2018 720p 10bit BluRay 6CH x265 HEVC-PSA
fromheretoeternitythemusical.co.uk - The Largest Bittorent System Login   |    Register
Latest Articles
Most searched
Hot torrents
Movie Torrents
View Torrent Info: Rampage (2018) [720p] [YTS] [YIFY]
View Torrent Info: Ready Player One (2018) [720p] [YTS] [YIFY]
View Torrent Info: Stolen princess: Ruslan and Ludmila (2018) [720p] [YTS] [YIFY]
View Torrent Info: Truth or Dare (2018) [720p] [YTS] [YIFY]
View Torrent Info: Life of the Party (2018) [720p] [YTS] [YIFY]
View Torrent Info: Blockers (2018) [720p] [YTS] [YIFY]
View Torrent Info: Blockers (2018) [720p] [YTS] [YIFY]
View Torrent Info: Loving Pablo (2017) [720p] [YTS] [YIFY]
View Torrent Info: The Death of Superman (2018) [720p] [YTS] [YIFY]
View Torrent Info: Isle of Dogs (2018) [720p] [YTS] [YIFY]
Hot torrents
TV Torrents
View Torrent Info: Westworld.S02E09.WEB.H264-DEFLATE[eztv]
View Torrent Info: Supergirl.S03E23.HDTV.x264-KILLERS[eztv]
View Torrent Info: The.Originals.S05E09.HDTV.x264-KILLERS[eztv]
View Torrent Info: The.Expanse.S03E11.HDTV.x264-KILLERS[eztv]
View Torrent Info: Colony.S03E08.HDTV.x264-KILLERS[eztv]
View Torrent Info: Quantico.S03E07.HDTV.x264-KILLERS[eztv]
View Torrent Info: Marvels.Cloak.and.Dagger.S01E04.WEB.x264-TBS[eztv]
View Torrent Info: Taken.2017.S02E15.HDTV.x264-KILLERS[eztv]
View Torrent Info: Last.Week.Tonight.With.John.Oliver.S05E15.HDTV.x264-UAV[eztv]
View Torrent Info: Marvels.Luke.Cage.S02E01.WEB.x264-STRiFE[eztv]
fromheretoeternitythemusical.co.uk > Categories > Movies torrents > HD torrents


Browse Movies torrents

Magadheera (2009) 720p - BDRip - x264 - [Hindi + Tamil + Telugu] - 1.5GB - ESubs - MovCr torrent



Download torrent: Download Magadheera (2009) 720p - BDRip - x264 - [Hindi + Tamil + Telugu] - 1.5GB - ESubs - MovCr torrent Magnet link Bookmark Torrent: Magadheera (2009) 720p - BDRip - x264 - [Hindi + Tamil + Telugu] - 1.5GB - ESubs - MovCr Magadheera (2009) 720p - BDRip - x264 - [Hindi + Tamil + Telugu] - 1.5GB - ESubs - MovCr torrent | if not working, try instead: Magnet Link
Info hash: 6A55EDE15F553A93253F69B11B5808DDF5757A0B
Category: Categories > Movies torrents > HD torrents
Trackers:
22    View all torrent trackers >
Health:
 seeds: 0 ,  leechers: 0 |  Update >
Total Size: 1.70 GB
Torrent status: Added by trusted uploader Added by trusted uploader Trusted Uploader Site Friend Superman Sun
Uploader: Trusted Uploader Site Friend Superman Sun
Torrent added: 2018-06-14 12:19:02
 

Download Magadheera (2009) 720p - BDRip - x264 - [Hindi + Tamil + Telugu] - 1.5GB - ESubs - MovCr torrent if not working, try downloading torrent using Download Magadheera (2009) 720p - BDRip - x264 - [Hindi + Tamil + Telugu] - 1.5GB - ESubs - MovCr via Magnet Link




Torrent Description

http://movcr.com

Magadheera (2009) 720p - BDRip - x264 - [Hindi + Tamil + Telugu] - 1.5GB - ESubs - MovCr



Video
ID : 1
Format : AVC
Format/Info : Advanced Video Codec
Format profile : [email protected]
Format settings, CABAC : Yes
Format settings, ReFrames : 4 frames
Codec ID : V_MPEG4/ISO/AVC
Duration : 2 h 44 min
Bit rate : 1 127 kb/s
Width : 1 280 pixels
Height : 544 pixels
Display aspect ratio : 2.35:1
Frame rate mode : Constant
Frame rate : 24.000 FPS
Color space : YUV
Chroma subsampling : 4:2:0
Bit depth : 8 bits
Scan type : Progressive
Bits/(Pixel*Frame) : 0.067
Stream size : 1.29 GiB (78%)
Title : www.MovCr.com
Writing library : x264 core 148 r2744 b97ae06
Encoding settings : cabac=1 / ref=3 / deblock=1:0:0 / analyse=0x3:0x113 / me=hex / subme=7 / psy=1 / psy_rd=1.00:0.00 / mixed_ref=1 / me_range=16 / chroma_me=1 / trellis=1 / 8x8dct=1 / cqm=0 / deadzone=21,11 / fast_pskip=1 / chroma_qp_offset=-2 / threads=17 / lookahead_threads=2 / sliced_threads=0 / nr=0 / decimate=1 / interlaced=0 / bluray_compat=0 / constrained_intra=0 / bframes=3 / b_pyramid=2 / b_adapt=1 / b_bias=0 / direct=1 / weightb=1 / open_gop=0 / weightp=2 / keyint=240 / keyint_min=24 / scenecut=40 / intra_refresh=0 / rc_lookahead=40 / rc=2pass / mbtree=1 / bitrate=1127 / ratetol=1.0 / qcomp=0.60 / qpmin=0 / qpmax=69 / qpstep=4 / cplxblur=20.0 / qblur=0.5 / ip_ratio=1.40 / aq=1:1.00
Language : English
Default : Yes
Forced : Yes

Audio #1
ID : 2
Format : MPEG Audio
Format version : Version 1
Format profile : Layer 3
Mode : Joint stereo
Mode extension : MS Stereo
Codec ID : A_MPEG/L3
Codec ID/Hint : MP3
Duration : 2 h 44 min
Bit rate mode : Variable
Bit rate : 105 kb/s
Nominal bit rate : 128 kb/s
Channel(s) : 2 channels
Sampling rate : 48.0 kHz
Frame rate : 41.667 FPS (1152 spf)
Compression mode : Lossy
Stream size : 123 MiB (7%)
Title : www.MovCr.com
Writing library : LAME3.99r
Encoding settings : -m j -V 4 -q 3 -lowpass 17 --abr 128
Language : Hindi
Default : Yes
Forced : No

Audio #2
ID : 3
Format : MPEG Audio
Format version : Version 1
Format profile : Layer 3
Mode : Joint stereo
Codec ID : A_MPEG/L3
Codec ID/Hint : MP3
Duration : 2 h 44 min
Bit rate mode : Variable
Bit rate : 121 kb/s
Nominal bit rate : 128 kb/s
Channel(s) : 2 channels
Sampling rate : 48.0 kHz
Frame rate : 41.667 FPS (1152 spf)
Compression mode : Lossy
Stream size : 142 MiB (8%)
Title : www.MovCr.com
Writing library : LAME3.99r
Encoding settings : -m j -V 4 -q 3 -lowpass 17 --abr 128
Language : Tamil
Default : No
Forced : Yes

Audio #3
ID : 4
Format : MPEG Audio
Format version : Version 1
Format profile : Layer 3
Mode : Joint stereo
Mode extension : MS Stereo
Codec ID : A_MPEG/L3
Codec ID/Hint : MP3
Duration : 2 h 44 min
Bit rate mode : Constant
Bit rate : 96.0 kb/s
Channel(s) : 2 channels
Sampling rate : 48.0 kHz
Frame rate : 41.667 FPS (1152 spf)
Compression mode : Lossy
Stream size : 113 MiB (7%)
Title : www.MovCr.com
Writing library : LAME3.99.5
Language : Telugu
Default : No
Forced : No

Text
ID : 5
Format : UTF-8
Codec ID : S_TEXT/UTF8
Codec ID/Info : UTF-8 Plain Text
Duration : 2 h 42 min
Bit rate : 34 b/s
Count of elements : 1198
Stream size : 41.5 KiB (0%)
Title : www.MovCr.com
Language : English
Default : No
Forced : No










#MovCr -> To avoid fakes, ALWAYS check that the torrent was added on fromheretoeternitythemusical.co.uk by MovCr

http://fromheretoeternitythemusical.co.uk/



Download Magadheera (2009) 720p - BDRip - x264 - [Hindi + Tamil + Telugu] - 1.5GB - ESubs - MovCr torrent


Comments (please add your comment)
No comments



Home - Browse Torrents - Upload Torrent - Stat - Forum - FAQ - Login
fromheretoeternitythemusical.co.uk is in compliance with copyrights
2006-2018 fromheretoeternitythemusical.co.uk