Eps22 Once Upon a Time - Season 7 (2017) | Dantalian no Shoka | C era una volta... PollonRd euphoria recruiting (black-ops) | Recent Posts | John Terrell
fromheretoeternitythemusical.co.uk - The Largest Bittorent System Login   |    Register
Latest Articles
Most searched
Hot torrents
Movie Torrents
View Torrent Info: Overboard (2018) [720p] [YTS] [YIFY]
View Torrent Info: How It Ends (2018) [720p] [YTS] [YIFY]
View Torrent Info: Furious (2017) [720p] [YTS] [YIFY]
View Torrent Info: Siberia (2018) [720p] [YTS] [YIFY]
View Torrent Info: Battalion (2018) [720p] [YTS] [YIFY]
View Torrent Info: Relentless (2018) [720p] [YTS] [YIFY]
View Torrent Info: The Devil's Doorway (2018) [720p] [YTS] [YIFY]
View Torrent Info: 7 Splinters in Time (2018) [720p] [YTS] [YIFY]
View Torrent Info: The Honey Killer (2018) [720p] [YTS] [YIFY]
View Torrent Info: Sara's Notebook (2018) [720p] [YTS] [YIFY]
Hot torrents
TV Torrents
View Torrent Info: The.100.S05E09.HDTV.x264-SVA[eztv]
View Torrent Info: The.Originals.S05E10.HDTV.x264-SVA[eztv]
View Torrent Info: The.Handmaids.Tale.S02E13.WEBRip.x264-TBS[eztv]
View Torrent Info: Shooter.S03E04.HDTV.x264-KILLERS[eztv]
View Torrent Info: Power.2014.S05E03.WEB.H264-DEFLATE[eztv]
View Torrent Info: Preacher.S03E04.HDTV.x264-SVA[eztv]
View Torrent Info: Salvation.S02E04.HDTV.x264-SVA[eztv]
View Torrent Info: Sharp.Objects.S01E02.WEB.H264-DEFLATE[eztv]
View Torrent Info: Code.Black.S03E12.HDTV.x264-KILLERS[eztv]
View Torrent Info: Queen.of.the.South.S03E04.HDTV.x264-KILLERS[eztv]
fromheretoeternitythemusical.co.uk > Categories > Movies torrents > Dubbed /Dual Audio torrents


Browse Movies torrents

Game of Thrones S01 E09 1080p BluRay x264 Dual Audio [Hindi DD 5.1 - English 5.1] Esub [MW] torrent



Download torrent: Download Game of Thrones S01 E09 1080p BluRay x264 Dual Audio [Hindi DD 5.1 - English 5.1] Esub [MW] torrent Magnet link Bookmark Torrent: Game of Thrones S01 E09 1080p BluRay x264 Dual Audio [Hindi DD 5.1 - English 5.1] Esub [MW] Game of Thrones S01 E09 1080p BluRay x264 Dual Audio [Hindi DD 5.1 - English 5.1] Esub [MW] torrent | if not working, try instead: Magnet Link
Info hash: F8144B9A4561DFEF8214E5A39782430DD226433E
Category: Categories > Movies torrents > Dubbed /Dual Audio torrents
Trackers:
13    View all torrent trackers >
Health:
 seeds: 51 ,  leechers: 18 |  Update >
Total Size: 1.40 GB
Torrent status: Added by trusted uploader Added by trusted uploader Trusted Uploader Site Friend Superman Sun
Uploader: Trusted Uploader Site Friend Superman Sun
Torrent added: 2018-07-10 13:50:47
 

Download Game of Thrones S01 E09 1080p BluRay x264 Dual Audio [Hindi DD 5.1 - English 5.1] Esub [MW] torrent if not working, try downloading torrent using Download Game of Thrones S01 E09 1080p BluRay x264 Dual Audio [Hindi DD 5.1 - English 5.1] Esub [MW] via Magnet Link




Torrent Description





General
Format : Matroska
Format version : Version 4 / Version 2
File size : 1.40 GiB
Duration : 56 min 16 s
Overall bit rate : 3 557 kb/s

Video
ID : 1
Format : AVC
Format/Info : Advanced Video Codec
Format profile : [email protected]
Format settings : CABAC / 4 Ref Frames
Format settings, CABAC : Yes
Format settings, RefFrames : 4 frames
Codec ID : V_MPEG4/ISO/AVC
Duration : 56 min 16 s
Bit rate : 3 000 kb/s
Width : 1 920 pixels
Height : 1 080 pixels
Display aspect ratio : 16:9
Frame rate mode : Constant
Frame rate : 23.976 (24000/1001) FPS
Color space : YUV
Chroma subsampling : 4:2:0
Bit depth : 8 bits
Scan type : Progressive
Bits/(Pixel*Frame) : 0.060
Stream size : 1.18 GiB (84%)
Writing library : x264 core 146 r2538 121396c
Default : Yes
Forced : No

Audio #1
ID : 2
Format : AC-3
Format/Info : Audio Coding 3
Codec ID : A_AC3
Duration : 56 min 16 s
Bit rate mode : Constant
Bit rate : 192 kb/s
Channel(s) : 6 channels
Channel positions : Front: L C R, Side: L R, LFE
Sampling rate : 48.0 kHz
Frame rate : 31.250 FPS (1536 SPF)
Bit depth : 16 bits
Compression mode : Lossy
Stream size : 77.3 MiB (5%)
Language : Hindi
Service kind : Complete Main
Default : Yes
Forced : No

Audio #2
ID : 3
Format : AAC
Format/Info : Advanced Audio Codec
Format profile : HE-AAC / LC
Format settings : Explicit
Codec ID : A_AAC-2
Duration : 56 min 16 s
Bit rate : 362 kb/s
Channel(s) : 6 channels
Channel positions : Front: L C R, Side: L R, LFE
Sampling rate : 48.0 kHz / 24.0 kHz
Frame rate : 23.438 FPS (1024 SPF)
Compression mode : Lossy
Stream size : 146 MiB (10%)
Language : English
Default : No
Forced : No

Text
ID : 4
Format : UTF-8
Codec ID : S_TEXT/UTF8
Codec ID/Info : UTF-8 Plain Text
Duration : 53 min 6 s
Bit rate : 67 b/s
Count of elements : 736
Stream size : 26.2 KiB (0%)
Default : Yes
Forced : No


Click To Enlarge Image







#moviezworldz -> To avoid fakes, ALWAYS check that the torrent was added on fromheretoeternitythemusical.co.uk by moviezworldz

http://fromheretoeternitythemusical.co.uk/



Download Game of Thrones S01 E09 1080p BluRay x264 Dual Audio [Hindi DD 5.1 - English 5.1] Esub [MW] torrent


Comments (please add your comment)
No comments



Home - Browse Torrents - Upload Torrent - Stat - Forum - FAQ - Login
fromheretoeternitythemusical.co.uk is in compliance with copyrights
2006-2018 fromheretoeternitythemusical.co.uk