HĂ„ndbok i retorikk- en miniatyr | Paralee Cook | My Love From the StarApowersoft MKV Converter Studio v2 5 5 Incl Keygen | Los Increibles (2004) [BrRip 1080p] [Dua... | April 2011
fromheretoeternitythemusical.co.uk - The Largest Bittorent System Login   |    Register
Latest Articles
Most searched
Hot torrents
Movie Torrents
View Torrent Info: Overboard (2018) [720p] [YTS] [YIFY]
View Torrent Info: How It Ends (2018) [720p] [YTS] [YIFY]
View Torrent Info: Furious (2017) [720p] [YTS] [YIFY]
View Torrent Info: Siberia (2018) [720p] [YTS] [YIFY]
View Torrent Info: Battalion (2018) [720p] [YTS] [YIFY]
View Torrent Info: Relentless (2018) [720p] [YTS] [YIFY]
View Torrent Info: The Devil's Doorway (2018) [720p] [YTS] [YIFY]
View Torrent Info: 7 Splinters in Time (2018) [720p] [YTS] [YIFY]
View Torrent Info: The Honey Killer (2018) [720p] [YTS] [YIFY]
View Torrent Info: Sara's Notebook (2018) [720p] [YTS] [YIFY]
Hot torrents
TV Torrents
View Torrent Info: The.100.S05E09.HDTV.x264-SVA[eztv]
View Torrent Info: The.Originals.S05E10.HDTV.x264-SVA[eztv]
View Torrent Info: The.Handmaids.Tale.S02E13.WEBRip.x264-TBS[eztv]
View Torrent Info: Shooter.S03E04.HDTV.x264-KILLERS[eztv]
View Torrent Info: Power.2014.S05E03.WEB.H264-DEFLATE[eztv]
View Torrent Info: Preacher.S03E04.HDTV.x264-SVA[eztv]
View Torrent Info: Salvation.S02E04.HDTV.x264-SVA[eztv]
View Torrent Info: Sharp.Objects.S01E02.WEB.H264-DEFLATE[eztv]
View Torrent Info: Code.Black.S03E12.HDTV.x264-KILLERS[eztv]
View Torrent Info: Queen.of.the.South.S03E04.HDTV.x264-KILLERS[eztv]
fromheretoeternitythemusical.co.uk > Categories > Movies torrents > Dubbed /Dual Audio torrents


Browse Movies torrents

Bridget Jones's Baby 2016 720p BluRay x264 Dual Audio [Hindi DD 5.1 - English 2.0] ESub [MW] torrent



Download torrent: Download Bridget Jones's Baby 2016 720p BluRay x264 Dual Audio [Hindi DD 5.1 - English 2.0] ESub [MW] torrent Magnet link Bookmark Torrent: Bridget Jones's Baby 2016 720p BluRay x264 Dual Audio [Hindi DD 5.1 - English 2.0] ESub [MW] Bridget Jones's Baby 2016 720p BluRay x264 Dual Audio [Hindi DD 5.1 - English 2.0] ESub [MW] torrent | if not working, try instead: Magnet Link
Info hash: 9BF775AC1BFFA3BCBD23AAE042ABBCD061CAE4CF
Category: Categories > Movies torrents > Dubbed /Dual Audio torrents
Trackers:
13    View all torrent trackers >
Health:
 seeds: 3 ,  leechers: 1 |  Update >
Total Size: 1.10 GB
Torrent status: Added by trusted uploader Added by trusted uploader Trusted Uploader Site Friend Superman Sun
Uploader: Trusted Uploader Site Friend Superman Sun
Torrent added: 2018-07-11 07:42:26
 

Download Bridget Jones's Baby 2016 720p BluRay x264 Dual Audio [Hindi DD 5.1 - English 2.0] ESub [MW] torrent if not working, try downloading torrent using Download Bridget Jones's Baby 2016 720p BluRay x264 Dual Audio [Hindi DD 5.1 - English 2.0] ESub [MW] via Magnet Link




Torrent Description





General
Format : Matroska
Format version : Version 4 / Version 2
File size : 1.07 GiB
Duration : 2 h 2 min
Overall bit rate : 1 244 kb/s

Video
ID : 1
Format : AVC
Format/Info : Advanced Video Codec
Format profile : [email protected]
Format settings : CABAC / 4 Ref Frames
Format settings, CABAC : Yes
Format settings, RefFrames : 4 frames
Codec ID : V_MPEG4/ISO/AVC
Duration : 2 h 2 min
Bit rate : 900 kb/s
Width : 1 280 pixels
Height : 534 pixels
Display aspect ratio : 2.40:1
Original display aspect ratio : 2.40:1
Frame rate mode : Constant
Frame rate : 23.976 FPS
Color space : YUV
Chroma subsampling : 4:2:0
Bit depth : 8 bits
Scan type : Progressive
Bits/(Pixel*Frame) : 0.055
Stream size : 789 MiB (72%)
Writing library : x264 core 148
Default : Yes
Forced : No

Audio #1
ID : 2
Format : AC-3
Format/Info : Audio Coding 3
Codec ID : A_AC3
Duration : 2 h 2 min
Bit rate mode : Constant
Bit rate : 224 kb/s
Channel(s) : 6 channels
Channel positions : Front: L C R, Side: L R, LFE
Sampling rate : 48.0 kHz
Frame rate : 31.250 FPS (1536 SPF)
Bit depth : 16 bits
Compression mode : Lossy
Stream size : 196 MiB (18%)
Language : Hindi
Service kind : Complete Main
Default : Yes
Forced : No

Audio #2
ID : 3
Format : AAC
Format/Info : Advanced Audio Codec
Format profile : LC
Codec ID : A_AAC-2
Duration : 2 h 2 min
Bit rate : 117 kb/s
Channel(s) : 2 channels
Channel positions : Front: L R
Sampling rate : 48.0 kHz
Frame rate : 46.875 FPS (1024 SPF)
Compression mode : Lossy
Stream size : 103 MiB (9%)
Language : English
Default : No
Forced : No

Text
ID : 4
Format : UTF-8
Codec ID : S_TEXT/UTF8
Codec ID/Info : UTF-8 Plain Text
Duration : 1 h 54 min
Bit rate : 80 b/s
Count of elements : 2135
Stream size : 67.3 KiB (0%)
Language : English
Default : Yes
Forced : No


Click To Enlarge Image









#moviezworldz -> To avoid fakes, ALWAYS check that the torrent was added on fromheretoeternitythemusical.co.uk by moviezworldz

http://fromheretoeternitythemusical.co.uk/



Download Bridget Jones's Baby 2016 720p BluRay x264 Dual Audio [Hindi DD 5.1 - English 2.0] ESub [MW] torrent


Comments (please add your comment)
No comments



Home - Browse Torrents - Upload Torrent - Stat - Forum - FAQ - Login
fromheretoeternitythemusical.co.uk is in compliance with copyrights
2006-2018 fromheretoeternitythemusical.co.uk