What Your Clutter Is Trying to Tell You | Officially Translated Light Novels (LNs) v2.0 Officially Translated Light Novels (LNs) v2.0 | ZombieLars (2017) 1X06 - Capitulo 06Emily Maddison | Kill La Kill | Broad City 8.1
fromheretoeternitythemusical.co.uk - The Largest Bittorent System Login   |    Register
Latest Articles
Most searched
Hot torrents
Movie Torrents
View Torrent Info: Overboard (2018) [720p] [YTS] [YIFY]
View Torrent Info: How It Ends (2018) [720p] [YTS] [YIFY]
View Torrent Info: Furious (2017) [720p] [YTS] [YIFY]
View Torrent Info: Siberia (2018) [720p] [YTS] [YIFY]
View Torrent Info: 5th Passenger (2018) [720p] [YTS] [YIFY]
View Torrent Info: Battalion (2018) [720p] [YTS] [YIFY]
View Torrent Info: Relentless (2018) [720p] [YTS] [YIFY]
View Torrent Info: 7 Splinters in Time (2018) [720p] [YTS] [YIFY]
View Torrent Info: Shock and Awe (2017) [720p] [YTS] [YIFY]
View Torrent Info: The Devil's Doorway (2018) [720p] [YTS] [YIFY]
Hot torrents
TV Torrents
View Torrent Info: The.100.S05E09.HDTV.x264-SVA[eztv]
View Torrent Info: The.Originals.S05E10.HDTV.x264-SVA[eztv]
View Torrent Info: The.Handmaids.Tale.S02E13.WEBRip.x264-TBS[eztv]
View Torrent Info: Shooter.S03E04.HDTV.x264-KILLERS[eztv]
View Torrent Info: Elementary.S06E11.WEBRip.x264-PBS[eztv]
View Torrent Info: Power.2014.S05E03.WEB.H264-DEFLATE[eztv]
View Torrent Info: Preacher.S03E04.HDTV.x264-SVA[eztv]
View Torrent Info: Sharp.Objects.S01E02.WEB.H264-DEFLATE[eztv]
View Torrent Info: Code.Black.S03E12.HDTV.x264-KILLERS[eztv]
View Torrent Info: Queen.of.the.South.S03E04.HDTV.x264-KILLERS[eztv]
fromheretoeternitythemusical.co.uk > Categories > Movies torrents > HD torrents


Browse Movies torrents

18+ Nude (2017) 720p HDRip x264 AAC by Full4movies torrent



Download torrent: Download 18+ Nude (2017) 720p HDRip x264 AAC by Full4movies torrent Magnet link Bookmark Torrent: 18+ Nude (2017) 720p HDRip x264 AAC by Full4movies 18+ Nude (2017) 720p HDRip x264 AAC by Full4movies torrent | if not working, try instead: Magnet Link
Info hash: ED180327069C4EEDC585ADF87D7CC4A876CD29A0
Category: Categories > Movies torrents > HD torrents
Trackers:
15    View all torrent trackers >
Health:
 seeds: 0 ,  leechers: 0 |  Update >
Torrent language:  
Total Size: 896.20 MB
Torrent status: Added by trusted uploader Added by trusted uploader Trusted Uploader Site Friend Superman Sun
Uploader: Trusted Uploader Site Friend Superman Sun
Torrent added: 2018-07-12 19:07:17
 

Download 18+ Nude (2017) 720p HDRip x264 AAC by Full4movies torrent if not working, try downloading torrent using Download 18+ Nude (2017) 720p HDRip x264 AAC by Full4movies via Magnet Link




Torrent Description



General
Complete name : Nude (2017) 720p HDRip x264 AAC by Full4movies.mkv
Format : Matroska
Format version : Version 4 / Version 2
File size : 896 MiB
Duration : 1 h 30 min
Overall bit rate : 1 385 kb/s
Encoded date : UTC 2018-07-11 15:33:26
Writing application : mkvmerge v8.1.0 ('Psychedelic Postcard') 32bit
Writing library : libebml v1.3.1 + libmatroska v1.4.2

Video
ID : 1
Format : AVC
Format/Info : Advanced Video Codec
Format profile : [email protected]
Format settings, CABAC : Yes
Format settings, RefFrames : 5 frames
Codec ID : V_MPEG4/ISO/AVC
Duration : 1 h 30 min
Bit rate : 1 280 kb/s
Width : 1 280 pixels
Height : 720 pixels
Display aspect ratio : 16:9
Frame rate mode : Constant
Frame rate : 23.976 (23976/1000) FPS
Color space : YUV
Chroma subsampling : 4:2:0
Bit depth : 8 bits
Scan type : Progressive
Bits/(Pixel*Frame) : 0.058
Stream size : 811 MiB (90%)
Writing library : x264 core 148 r2643 5c65704
Default : Yes
Forced : No

Audio
ID : 2
Format : AAC
Format/Info : Advanced Audio Codec
Format profile : LC
Codec ID : A_AAC
Duration : 1 h 30 min
Bit rate : 132 kb/s
Channel(s) : 2 channels
Channel positions : Front: L R
Sampling rate : 48.0 kHz
Frame rate : 46.875 FPS (1024 SPF)
Compression mode : Lossy
Delay relative to video : -21 ms
Stream size : 84.1 MiB (9%)
Language : English
Default : Yes
Forced : No

Screen Shoots



#shmasti -> To avoid fakes, ALWAYS check that the torrent was added on fromheretoeternitythemusical.co.uk by shmasti

http://fromheretoeternitythemusical.co.uk/



Download 18+ Nude (2017) 720p HDRip x264 AAC by Full4movies torrent


Comments (please add your comment)
No comments



Home - Browse Torrents - Upload Torrent - Stat - Forum - FAQ - Login
fromheretoeternitythemusical.co.uk is in compliance with copyrights
2006-2018 fromheretoeternitythemusical.co.uk