Being Human UK | Probability And Statistics | How to Paint Citadel Miniatures: EldarPacific Rim Uprising (2018) | Cosmopolis DVDRIP | Livro PDF A Cabana
fromheretoeternitythemusical.co.uk - The Largest Bittorent System Login   |    Register
Latest Articles
Most searched
Hot torrents
Movie Torrents
View Torrent Info: Overboard (2018) [720p] [YTS] [YIFY]
View Torrent Info: How It Ends (2018) [720p] [YTS] [YIFY]
View Torrent Info: Furious (2017) [720p] [YTS] [YIFY]
View Torrent Info: Siberia (2018) [720p] [YTS] [YIFY]
View Torrent Info: Traffik (2018) [720p] [YTS] [YIFY]
View Torrent Info: Bilal: A New Breed of Hero (2015) [720p] [YTS] [YIFY]
View Torrent Info: 5th Passenger (2018) [720p] [YTS] [YIFY]
View Torrent Info: 7 Splinters in Time (2018) [720p] [YTS] [YIFY]
View Torrent Info: White Fang (2018) [720p] [YTS] [YIFY]
View Torrent Info: The Endless (2017) [720p] [YTS] [YIFY]
Hot torrents
TV Torrents
View Torrent Info: The.100.S05E09.HDTV.x264-SVA[eztv]
View Torrent Info: The.Handmaids.Tale.S02E13.WEBRip.x264-TBS[eztv]
View Torrent Info: The.Originals.S05E10.HDTV.x264-SVA[eztv]
View Torrent Info: Shooter.S03E04.HDTV.x264-KILLERS[eztv]
View Torrent Info: Elementary.S06E11.WEBRip.x264-PBS[eztv]
View Torrent Info: Power.2014.S05E03.WEB.H264-DEFLATE[eztv]
View Torrent Info: Code.Black.S03E12.HDTV.x264-KILLERS[eztv]
View Torrent Info: Queen.of.the.South.S03E04.HDTV.x264-KILLERS[eztv]
View Torrent Info: SIX.S02E07.HDTV.x264-KILLERS[eztv]
View Torrent Info: Shades.of.Blue.S03E04.HDTV.x264-SVA[eztv]
fromheretoeternitythemusical.co.uk > Categories > Movies torrents > HD torrents


Browse Movies torrents

Angrezi Mein Kehte Hain (2018) HDRip x264 AAC by Full4movies torrent



Download torrent: Download Angrezi Mein Kehte Hain (2018) HDRip x264 AAC by Full4movies torrent Magnet link Bookmark Torrent: Angrezi Mein Kehte Hain (2018) HDRip x264 AAC by Full4movies Angrezi Mein Kehte Hain (2018) HDRip x264 AAC by Full4movies torrent | if not working, try instead: Magnet Link
Info hash: 764CC1B7E1AD1BA4CACC1A7C0A07B9D91A25FEAB
Category: Categories > Movies torrents > HD torrents
Trackers:
15    View all torrent trackers >
Health:
 seeds: 1 ,  leechers: 1 |  Update >
Torrent language:  
Total Size: 448.80 MB
Torrent status: Added by trusted uploader Added by trusted uploader Trusted Uploader Site Friend Superman Sun
Uploader: Trusted Uploader Site Friend Superman Sun
Torrent added: 2018-07-12 19:43:01
 

Download Angrezi Mein Kehte Hain (2018) HDRip x264 AAC by Full4movies torrent if not working, try downloading torrent using Download Angrezi Mein Kehte Hain (2018) HDRip x264 AAC by Full4movies via Magnet Link




Torrent Description



General
Complete name : Angrezi Mein Kehte Hain (2018) HDRip x264 AAC by Full4movies.mkv
Format : Matroska
Format version : Version 4 / Version 2
File size : 449 MiB
Duration : 1 h 48 min
Overall bit rate : 580 kb/s
Encoded date : UTC 2018-07-12 08:46:09
Writing application : mkvmerge v8.1.0 ('Psychedelic Postcard') 32bit
Writing library : libebml v1.3.1 + libmatroska v1.4.2

Video
ID : 1
Format : AVC
Format/Info : Advanced Video Codec
Format profile : [email protected]
Format settings, CABAC : Yes
Format settings, RefFrames : 5 frames
Codec ID : V_MPEG4/ISO/AVC
Duration : 1 h 48 min
Bit rate : 512 kb/s
Width : 720 pixels
Height : 304 pixels
Display aspect ratio : 2.35:1
Frame rate mode : Constant
Frame rate : 23.976 (23976/1000) FPS
Color space : YUV
Chroma subsampling : 4:2:0
Bit depth : 8 bits
Scan type : Progressive
Bits/(Pixel*Frame) : 0.098
Stream size : 397 MiB (89%)
Writing library : x264 core 148 r2643 5c65704
Default : Yes
Forced : No

Audio
ID : 2
Format : AAC
Format/Info : Advanced Audio Codec
Format profile : LC
Codec ID : A_AAC
Duration : 1 h 48 min
Bit rate : 64.2 kb/s
Channel(s) : 2 channels
Channel positions : Front: L R
Sampling rate : 48.0 kHz
Frame rate : 46.875 FPS (1024 SPF)
Compression mode : Lossy
Stream size : 49.7 MiB (11%)
Language : Hindi
Default : Yes
Forced : No

Screen Shooter



#shmasti -> To avoid fakes, ALWAYS check that the torrent was added on fromheretoeternitythemusical.co.uk by shmasti

http://fromheretoeternitythemusical.co.uk/



Download Angrezi Mein Kehte Hain (2018) HDRip x264 AAC by Full4movies torrent


Comments (please add your comment)
No comments



Home - Browse Torrents - Upload Torrent - Stat - Forum - FAQ - Login
fromheretoeternitythemusical.co.uk is in compliance with copyrights
2006-2018 fromheretoeternitythemusical.co.uk